add to wish list | library


1 of 1 recommend this,
would you recommend it?

yes | no

Support this site by purchasing from these vendors using the links provided below. As an Amazon Associate SA-CD.net earns from qualifying purchases.
 
amazon.ca
amazon.co.uk
amazon.com
amazon.de
 
amazon.fr
amazon.it
CDJapan
jpc

Reviews: Bryan Ferry: These Foolish Things

Reviews: 1

Review by sylvian June 10, 2015 (1 of 1 found this review helpful)
Performance:   Sonics:
The First Bryan Ferry solo release from Sept. 1973 - a collection of the fresh production of the pop classic such as It's My Party ..... none of the 13 tracks penned by Bryan Ferry himself.

I have never got it on vinyl, which might be reason that I did not liked the album until now when it is availabe on this spectacular release. River of Salt is now my fav track from this album.

The sound quality is crisp and clear while retaining the old production style from early seventies.


--------------------------------------------------------------------------------
Analyzed: Bryan Ferry / These Foolish Things
--------------------------------------------------------------------------------

DR Peak RMS Duration Track
--------------------------------------------------------------------------------
DR13 -4.04 dB -18.45 dB 5:22 01-A Hard Rain's A-Gonna Fall
DR13 -11.76 dB -27.31 dB 1:48 02-River Of Salt
DR13 -5.82 dB -20.79 dB 2:15 03-Don't Ever Change
DR13 -5.95 dB -21.49 dB 3:06 04-Piece Of My Heart
DR13 -4.57 dB -20.81 dB 1:50 05-Baby I Don't Care
DR13 -5.49 dB -20.36 dB 2:00 06-It's My Party
DR12 -5.61 dB -19.99 dB 4:13 07-Don't Worry Baby
DR12 -4.74 dB -18.53 dB 5:51 08-Sympathy For The Devil
DR13 -6.74 dB -22.12 dB 3:05 09-The Tracks Of My Tears
DR12 -6.57 dB -20.96 dB 2:32 10-You Won't See Me
DR13 -5.72 dB -20.62 dB 3:02 11-I Love How You Love Me
DR12 -6.28 dB -19.82 dB 3:07 12-Loving You Is Sweeter Than Ever
DR13 -5.33 dB -20.88 dB 5:41 13-These Foolish Things
--------------------------------------------------------------------------------

Number of tracks: 13
Official DR value: DR13

Samplerate: 2822400 Hz / PCM Samplerate: 176400 Hz
Channels: 2
Bits per sample: 24
Bitrate: 5645 kbps
Codec: DSD64
================================================================================


Do not hesitate with the purchase if you love Roxy Music and Bryan Ferry later solo albums

You will not be disappionted with this collection of covers you might know very well from the airplay.

Was this review helpful to you?  yes | no