add to wish list | library


3 of 3 recommend this,
would you recommend it?

yes | no

Support this site by purchasing from these vendors using the links provided below. As an Amazon Associate SA-CD.net earns from qualifying purchases.
 
amazon.ca
amazon.co.uk
amazon.com
amazon.de
 
amazon.fr
amazon.it
CDJapan
jpc

Reviews: Bryan Ferry: The Bride Stripped Bare

Reviews: 1

Review by sylvian June 10, 2015 (1 of 1 found this review helpful)
Performance:   Sonics:
The Fifth solo release by Bryan Ferry marked the production style change. While its predecessor suffers from Bowie-like production this one sounds still afresh after all those years.

The recrod has been made at the time of the Roxy Music interim between Siren and Manifesto albums.

Ferry penned 4 of the 10 tracks and one arrangement of the traditional Carrickfergus which also made A-side of the single from the album.

Followed by three exceptional albums by Roxy Music (Manifesto/Flesh+Blood/Avalon) Bryan Ferry proved himself as an artist who also brushed off glam-rock clichés and a strong songwriter as well.

--------------------------------------------------------------------------------
Analyzed: Bryan Ferry / The Bride Stripped Bare
--------------------------------------------------------------------------------

DR Peak RMS Duration Track
--------------------------------------------------------------------------------
DR12 -5.18 dB -18.79 dB 2:30 01-Sign Of The Times
DR14 -3.48 dB -20.23 dB 5:13 02-Can't Let Go
DR13 -4.76 dB -21.04 dB 3:40 03-Hold On (I'm Coming)
DR16 -5.76 dB -24.50 dB 3:21 04-The Same Old Blues
DR16 -8.11 dB -27.64 dB 6:24 05-When She Walks In The Room
DR15 -4.44 dB -21.69 dB 4:28 06-Take Me To The River
DR13 -4.08 dB -19.88 dB 4:11 07-What Goes On
DR15 -9.30 dB -28.13 dB 3:47 08-Carrickfergus
DR14 -4.53 dB -21.77 dB 3:17 09-That's How Strong My Love Is
DR14 -7.57 dB -24.16 dB 5:04 10-This Island Earth
--------------------------------------------------------------------------------

Number of tracks: 10
Official DR value: DR14

Samplerate: 2822400 Hz / PCM Samplerate: 176400 Hz
Channels: 2
Bits per sample: 24
Bitrate: 5645 kbps
Codec: DSD64
================================================================================

Recommended!

Was this review helpful to you?  yes | no